<?xml version="1.0" standalone="no"?>
<!DOCTYPE svg PUBLIC "-//W3C//DTD SVG 1.1//EN" "http://www.w3.org/Graphics/SVG/1.1/DTD/svg11.dtd" >
<svg xmlns="http://www.w3.org/2000/svg">
<metadata>
Created by FontForge 20120731 at Mon Mar  6 12:17:33 2017
 By admin
</metadata>
<defs>
<font id="iconfont" horiz-adv-x="1024" >
  <font-face 
    font-family="iconfont"
    font-weight="500"
    font-stretch="normal"
    units-per-em="1024"
    panose-1="2 0 6 3 0 0 0 0 0 0"
    ascent="896"
    descent="-128"
    x-height="792"
    bbox="44 -66 959 824"
    underline-thickness="0"
    underline-position="0"
    unicode-range="U+0078-E62A"
  />
<missing-glyph 
 />
    <glyph glyph-name=".notdef" 
 />
    <glyph glyph-name=".notdef" 
 />
    <glyph glyph-name=".null" horiz-adv-x="0" 
 />
    <glyph glyph-name="nonmarkingreturn" horiz-adv-x="341" 
 />
    <glyph glyph-name="x" unicode="x" horiz-adv-x="1001" 
d="M281 543q-27 -1 -53 -1h-83q-18 0 -36.5 -6t-32.5 -18.5t-23 -32t-9 -45.5v-76h912v41q0 16 -0.5 30t-0.5 18q0 13 -5 29t-17 29.5t-31.5 22.5t-49.5 9h-133v-97h-438v97zM955 310v-52q0 -23 0.5 -52t0.5 -58t-10.5 -47.5t-26 -30t-33 -16t-31.5 -4.5q-14 -1 -29.5 -0.5
t-29.5 0.5h-32l-45 128h-439l-44 -128h-29h-34q-20 0 -45 1q-25 0 -41 9.5t-25.5 23t-13.5 29.5t-4 30v167h911zM163 247q-12 0 -21 -8.5t-9 -21.5t9 -21.5t21 -8.5q13 0 22 8.5t9 21.5t-9 21.5t-22 8.5zM316 123q-8 -26 -14 -48q-5 -19 -10.5 -37t-7.5 -25t-3 -15t1 -14.5
t9.5 -10.5t21.5 -4h37h67h81h80h64h36q23 0 34 12t2 38q-5 13 -9.5 30.5t-9.5 34.5q-5 19 -11 39h-368zM336 498v228q0 11 2.5 23t10 21.5t20.5 15.5t34 6h188q31 0 51.5 -14.5t20.5 -52.5v-227h-327z" />
    <glyph glyph-name="weibiaoti--copy" unicode="&#xe603;" 
d="M669 555h-417v49h417v-49zM669 408h-417v49h417v-49zM669 261h-417v49h417v-49v0zM386 -1h-263q-5 0 -8.5 3.5t-3.5 8.5v753q0 5 3.5 8.5t8.5 3.5h700q4 0 7.5 -3.5t3.5 -8.5v-318l50 49v317q0 5 -3.5 8.5t-8.5 3.5h-796q-5 0 -8.5 -3.5t-3.5 -8.5v-850q0 -5 3.5 -8.5
t8.5 -3.5h261zM835 147v-136q0 -5 -3.5 -8.5t-8.5 -3.5v0h-138l-50 -49h237q5 0 8.5 3.5t3.5 8.5v234zM909 409q9 8 22 8t22 -9l-3 3q9 -9 9 -21q0 -13 -9 -22l-437 -425q-9 -9 -21.5 -9t-21.5 9l2 -2q-9 8 -9 21t9 22z" />
    <glyph glyph-name="-dengpao" unicode="&#xe605;" 
d="M854 341h-38q-15 0 -26.5 11t-11.5 27t11.5 27t26.5 11h38q16 0 27 -11t11 -27t-11 -27t-27 -11zM754 567q-11 -11 -26.5 -11t-27 11t-11.5 26.5t12 26.5l26 27q11 11 27 11t27 -11t11 -26.5t-11 -26.5zM512.5 153q-94.5 0 -160.5 66.5t-66 160.5t66 160.5t160.5 66.5
t160.5 -66.5t66 -160.5t-66 -160.5t-160.5 -66.5zM512.5 556q-73.5 0 -125 -51.5t-51.5 -124.5t51.5 -124.5t125 -51.5t125 51.5t51.5 124.5t-51.5 124.5t-125 51.5zM512.5 645q-15.5 0 -26.5 11t-11 26v38q0 16 11 27t26.5 11t26.5 -11t11 -27v-38q0 -15 -11 -26t-26.5 -11
zM271 567l-27 27q-11 11 -11 26.5t11 26.5t27 11t27 -11l26 -27q12 -11 12 -26.5t-11.5 -26.5t-27 -11t-26.5 11zM247 379q0 -16 -11.5 -27t-26.5 -11h-38q-16 0 -27 11t-11 27t11 27t27 11h38q15 0 26.5 -11t11.5 -27zM400 115h225h1v-37h-1h-225h-1v37h1zM437 40h151v-1
v-36v-1h-151v1v36v1zM548 491l-116 -109h79l-36 -111l113 146l-40 2v72z" />
    <glyph glyph-name="icon-test" unicode="&#xe607;" 
d="M388 364.5q0 40.5 28 69t68 28.5t68.5 -28.5t28.5 -69t-28.5 -69.5t-68.5 -29t-68 29t-28 69.5zM545 364.5q0 25.5 -18 43.5t-43 18t-43 -18t-18 -43.5t18 -44t43 -18.5t43 18.5t18 44zM809 -13h-266l-386 396l379 397h273v-36h-258l-344 -361l351 -360h251v-36z" />
    <glyph glyph-name="denglu" unicode="&#xe608;" 
d="M853 -4h-49q-1 120 -86.5 204.5t-205.5 84.5t-205.5 -84.5t-86.5 -204.5h-49q1 108 64 195.5t162 122.5q-58 32 -93.5 89.5t-35.5 126.5q0 101 71.5 172.5t172.5 71.5t172.5 -71.5t71.5 -172.5q0 -69 -35.5 -126.5t-93.5 -89.5q99 -35 162 -122.5t64 -195.5zM707 530
q0 81 -57 138t-138 57t-138 -57t-57 -138t57 -138.5t138 -57.5t138 57.5t57 138.5z" />
    <glyph glyph-name="pinglu" unicode="&#xe609;" 
d="M512 676q130 0 222 -77t92 -185q0 -57 -28 -108.5t-79 -88.5q-35 -23 -34 -62q1 -34 35 -63q-64 3 -90 39q-19 26 -47 27h-5l-4 -1q-31 -5 -62 -5q-130 0 -222 76.5t-92 185t92 185.5t222 77zM512 728q-100 0 -184.5 -42t-133.5 -114.5t-49 -158t49 -158t133.5 -114.5
t184.5 -42q36 0 71 6v0q1 0 5.5 -7t14.5 -16.5t25 -19t42.5 -16.5t62.5 -7q58 0 134 20q5 1 -11 10q-6 4 -23 13q-89 48 -95 71q-3 12 11 20q60 44 95 107t35 134q0 85 -49 157.5t-133.5 114.5t-184.5 42v0z" />
    <glyph glyph-name="shurukuang" unicode="&#xe60a;" 
d="M779 491v-107h-107v-107h-107v-107h-107v107h-107v107h-107v107h-107v107h214v-107h107v-107h107v107h107v107h214v-107h-107z" />
    <glyph glyph-name="zan" unicode="&#xe60d;" 
d="M776 6l-5 -7h-377l-43 30v417l9 5q33 17 57.5 36t40 40.5t25 38.5t15 40.5t7 36.5t3.5 35q2 18 3 28t5.5 24.5t11.5 21.5t20 12t32 4q57 -4 84 -47q17 -27 21 -66.5t-4 -81.5t-16 -72t-18 -58l247 1l1 -16q2 -69 -9.5 -137.5t-27.5 -114.5t-36.5 -89t-30 -58t-15.5 -23z
M599 410l9 23q10 24 19.5 56.5t18 73.5t7 79.5t-16.5 61.5q-18 29 -59 32q-21 1 -27 -9.5t-9 -50.5q-2 -24 -4 -37.5t-7.5 -39t-16 -44.5t-26.5 -42.5t-42 -45t-61 -40.5v-381l21 -15h349q12 20 26.5 47.5t35.5 78t34 118t12 136.5zM129 442h182v-437h-149zM192 37h87v373
h-114z" />
    <glyph glyph-name="zan-shixin" unicode="&#xe60e;" 
d="M776 6l-5 -7h-377l-43 30v417l9 5q33 17 57.5 36t40 40.5t25 38.5t15 40.5t7 36.5t3.5 35q2 18 3 28t5.5 24.5t11.5 21.5t20 12t32 4q57 -4 84 -47q17 -27 21 -66.5t-4 -81.5t-16 -72t-18 -58l247 1l1 -16q2 -69 -9.5 -137.5t-27.5 -114.5t-36.5 -89t-30 -58t-15.5 -23z
M129 442h182v-437h-149zM776 6l-5 -7h-377l-43 30v417l9 5q33 17 57.5 36t40 40.5t25 38.5t15 40.5t7 36.5t3.5 35q2 18 3 28t5.5 24.5t11.5 21.5t20 12t32 4q57 -4 84 -47q17 -27 21 -66.5t-4 -81.5t-16 -72t-18 -58l247 1l1 -16q2 -69 -9.5 -137.5t-27.5 -114.5t-36.5 -89
t-30 -58t-15.5 -23zM599 410l9 23q10 24 19.5 56.5t18 73.5t7 79.5t-16.5 61.5q-18 29 -59 32q-21 1 -27 -9.5t-9 -50.5q-2 -24 -4 -37.5t-7.5 -39t-16 -44.5t-26.5 -42.5t-42 -45t-61 -40.5v-381l21 -15h349q12 20 26.5 47.5t35.5 78t34 118t12 136.5zM129 442h182v-437
h-149zM192 37h87v373h-114z" />
    <glyph glyph-name="erweima" unicode="&#xe610;" 
d="M512 -25h51v51h-51v-51zM614 -25h51v51h-51v-51zM716 -25h51v51h-51v-51zM819 -25h51v51h-51v-51zM460 26h52v51h-52v-51zM665 26h51v51h-51v-51zM767 26h52v51h-52v-51zM870 26h51v51h-51v-51zM512 77h51v52h-51v-52zM614 77h51v52h-51v-52zM716 77h51v52h-51v-52z
M204 77h103v103h-103v-103zM460 129h52v51h-52v-51zM563 129h51v51h-51v-51zM767 129h52v51h-52v-51zM870 129h51v51h-51v-51zM512 180h51v51h-51v-51zM614 180h51v51h-51v-51zM716 180h51v51h-51v-51zM819 180h51v51h-51v-51zM153 231h205v-205h-205v205zM102 -25h307v307
h-307v-307zM460 231h52v51h-52v-51zM563 231h51v51h-51v-51zM665 231h51v51h-51v-51zM767 231h52v51h-52v-51zM870 231h51v51h-51v-51zM512 282h51v51h-51v-51zM614 282h51v51h-51v-51zM819 282h51v51h-51v-51zM153 333h51v51h-51v-51zM358 333h51v51h-51v-51zM460 333h52
v51h-52v-51zM563 333h51v51h-51v-51zM665 333h51v51h-51v-51zM767 333h52v51h-52v-51zM870 333h51v51h-51v-51zM102 384h51v52h-51v-52zM204 384h52v52h-52v-52zM307 384h51v52h-51v-52zM409 384h51v52h-51v-52zM614 384h51v52h-51v-52zM716 384h51v52h-51v-52zM819 384h51
v52h-51v-52zM460 436h52v51h-52v-51zM512 487h51v51h-51v-51zM460 538h52v51h-52v-51zM512 589h51v51h-51v-51zM204 589h103v103h-103v-103zM460 640h52v52h-52v-52zM716 589h103v103h-103v-103zM512 692h51v51h-51v-51zM153 743h205v-205h-205v205zM102 487h307v307h-307
v-307zM460 743h52v51h-52v-51zM665 743h205v-205h-205v205zM614 487h307v307h-307v-307z" />
    <glyph glyph-name="buxing-shixin" unicode="&#xe614;" 
d="M895 340l-1 -16l-247 1q10 -28 18 -58t15.5 -72.5t4 -82t-20.5 -65.5q-27 -43 -85 -47q-18 -2 -31 3t-20 12.5t-11.5 21.5t-6 24t-2.5 28q-2 23 -4 35.5t-7 36t-15 41t-25 38.5t-40 40.5t-57 36.5l-9 5v417l43 30h377l5 -7q6 -8 15.5 -23t30 -58t36.5 -89t27.5 -115
t9.5 -137zM161 763h150v-438h-182z" />
    <glyph glyph-name="degnbian-sanjiaoxing" unicode="&#xe615;" 
d="M867 388l-709 -389v777z" />
    <glyph glyph-name="qq-da" unicode="&#xe616;" 
d="M854 243q0 -10 -1 -20t-3.5 -22.5t-8 -17.5t-13.5 -5t-21.5 14.5t-30.5 42.5q-19 -53 -55 -101q3 -1 7 -2.5t15 -8.5t18.5 -15t13.5 -22t4 -30q0 -2 -0.5 -6.5t-7.5 -15t-20 -18t-41 -13.5t-66 -5q-11 1 -28 3.5t-51 14.5t-48 31h-25q-28 -39 -123 -49h-3q-39 -1 -67 4.5
t-41 14.5t-19.5 18t-8 15t-0.5 6q-1 12 1.5 22.5t7.5 18t11.5 14t13 11t12 7.5t9 4l3.5 1q-16 22 -29.5 47t-19.5 39l-6 15q-62 -101 -75 -27q-3 14 -3 46q15 86 80 152l4 4q-3 26 -1 43.5t6 29t9 17.5t8 8l4 3q1 54 15.5 97t33.5 69.5t46.5 46t48.5 28t46.5 13t33 5t15 0.5
t15 -0.5t32.5 -5t46.5 -13t49 -28t46.5 -46t33.5 -69.5t15.5 -97q1 -1 3.5 -2.5t8.5 -8.5t9 -17.5t6 -29t-1 -43.5l7 -7t17.5 -20.5t23 -32.5t21 -43t15.5 -53q2 0 2 -11z" />
    <glyph glyph-name="xiangshanng" unicode="&#xe619;" 
d="M881 176l-370 373l-368 -373l-28 28l382 388h28l384 -388z" />
    <glyph glyph-name="weixin-da" unicode="&#xe624;" 
d="M379 200q-46 0 -106 17l-109 -55l31 93q-121 85 -121 204q0 109 89.5 183.5t215.5 74.5q113 0 200.5 -60t106.5 -153q-15 3 -29 3q-109 0 -184 -71t-75 -171q0 -30 8 -64q-8 -1 -27 -1v0zM828 94l21 -77l-82 46q-6 -1 -28 -6t-36 -7.5t-28 -2.5q-108 0 -183 64.5t-75 157
t75 157t183 64.5q104 0 181.5 -65t77.5 -156q0 -50 -29 -94.5t-77 -80.5zM591 367q-12 0 -21 -9t-9 -22q0 -10 9.5 -19t20.5 -9q16 0 27.5 8.5t11.5 19.5q0 13 -11 22t-28 9zM492.5 513q17.5 0 28 10t10.5 27q0 18 -10.5 28t-28.5 10t-31 -10.5t-13 -27.5q0 -16 13.5 -26.5
t31 -10.5zM279 588q-18 0 -32 -10.5t-14 -27.5q0 -16 14 -27t32 -11q17 0 28 10.5t11 27.5t-11 27.5t-28 10.5zM760 367q-12 0 -21 -9t-9 -22q0 -10 9 -19t21 -9q16 0 27 8.5t11 19.5q-1 13 -11.5 22t-26.5 9z" />
    <glyph glyph-name="xiazai" unicode="&#xe626;" 
d="M104 192h79q1 0 1 -1v-202q0 -1 -1 -1h-79q-1 0 -1 1v202q0 1 1 1zM837 192h79q1 0 1 -1v-202q0 -1 -1 -1h-79q-1 0 -1 1v202q0 1 1 1zM104 69h812q1 0 1 -1v-79q0 -1 -1 -1h-812q-1 0 -1 1v79q0 1 1 1zM470 762h80q1 0 1 -1v-609q0 -1 -1 -1h-80q-1 0 -1 1v609q0 1 1 1z
M241 459.5q12 12.5 29 12.5t29 -13l233 -233q12 -12 12 -29t-12 -29t-29 -12t-29 12l-233 233q-12 12 -12 29t12 29.5zM786.5 466.5q-12.5 12.5 -30.5 12.5t-30 -12l-244 -244q-12 -13 -12 -30.5t12.5 -30t30 -12.5t30.5 12l243 244q13 12 13 30t-12.5 30.5zM469 322h81
v-171h-81v171zM103 188h81v-199h-81v199zM836 188h81v-199h-81v199z" />
    <glyph glyph-name="xinlang-da" unicode="&#xe62a;" 
d="M460 37q-103 0 -190.5 33t-138 90.5t-50.5 124.5q0 49 41.5 113t97.5 116t116 88.5t96 36.5q18 0 35.5 -6.5t33 -21.5t15.5 -39.5t-19 -61.5q-1 -1 5.5 1t19.5 6.5t28.5 9t35 8t38 5t37.5 -2t33 -12.5q25 -14 30 -34.5t-2.5 -36.5t-17.5 -30t-10 -16q0 -1 15 -4t36 -9.5
t42 -18t35.5 -35t14.5 -56.5q0 -67 -50.5 -124.5t-137 -90.5t-189.5 -33zM757.5 544.5q-10.5 12.5 -28.5 18t-31 4.5l-13 -1q-7 0 -12.5 5t-5.5 12v7q0 7 5.5 13t12.5 7q6 2 17 3.5t38 -4.5t46.5 -24t26 -46.5t2.5 -48.5l-3 -19q-1 -8 -7.5 -13t-13.5 -5h-16q-7 0 -11 5
t-2 12q2 1 5 12.5t2 30.5t-11.5 31.5zM924 448q-1 -11 -10 -18.5t-20 -7.5h-11q-11 0 -18 7.5t-5 18.5q1 4 2 10.5t2 25.5t-1 37.5t-9.5 42.5t-21 44t-35.5 33t-43 18t-40.5 7t-31.5 1h-12q-12 -1 -19.5 6.5t-7.5 18.5v13v0q0 11 7.5 19t18.5 8q1 0 4 1q120 6 196 -67
q23 -22 37 -52.5t17.5 -58.5t4 -52.5t-1.5 -39.5zM425 432.5q-100 -14.5 -164.5 -71t-55 -122.5t87 -103t177.5 -23t164.5 71t55 123t-87 103t-177.5 22.5zM445.5 137.5q-59.5 -11.5 -109 15.5t-59 77.5t25.5 94.5t94.5 55.5t109 -16t59 -78t-25.5 -94t-94.5 -55zM360 271.5
q-18 -8.5 -26.5 -24.5t-2 -30t24 -18t36 4.5t26.5 24.5t1.5 30t-24 18t-35.5 -4.5zM448 310h-1q-10 0 -17.5 -7.5t-7.5 -17.5t7.5 -17.5t18 -7.5t17.5 7.5t7 17.5t-7 17.5t-17 7.5z" />
  </font>
</defs>
</svg>
